上一主题下一主题
«12345»Pages: 1/5     Go
主题 : 2022年5月29日 21-22赛季欧冠决赛 利物浦VS皇家马德里 HDR 4K 2160p 125GB 【115下载】
级别: 赛事发布员
0  发表于: 2022-07-03 18:13

2022年5月29日 21-22赛季欧冠决赛 利物浦VS皇家马德里 HDR 4K 2160p 125GB 【115下载】

管理提醒: 本帖被 付四 执行置顶操作(2022-07-03)
General
ID : 160 (0xA0)
Complete name : H:UCL.28.05.2022.Final.Liverpool vs Real Madrid.Int.Sat feed.HDR.4K.4.2.2-10Bits.2160p.50fps-SportHD.org.ts.ts
Format : MPEG-TS
File size : 125 GiB
Duration : 5 h 7 min
Overall bit rate mode : Variable
Overall bit rate : 58.1 Mb/s

Video
ID : 512 (0x200)
Menu ID : 1 (0x1)
Format : HEVC
Format/Info : High Efficiency Video Coding
Format profile : Format [email protected]@Main
Codec ID : 36
Duration : 5 h 7 min
Width : 3 840 pixels
Height : 2 160 pixels
Display aspect ratio : 16:9
Frame rate : 50.000 FPS
Standard : Component
Color space : YUV
Chroma subsampling : 4:2:2 (Type 2)
Bit depth : 10 bits
Color range : Limited
Color primaries : BT.2020
Transfer characteristics : HLG
Matrix coefficients : BT.2020 non-constant

Audio #1
ID : 4112 (0x1010)
Menu ID : 1 (0x1)
Format : MPEG Audio
Format version : Version 1
Format profile : Layer 2
Codec ID : 3
Duration : 5 h 7 min
Bit rate mode : Constant
Bit rate : 384 kb/s
Channel(s) : 2 channels
Sampling rate : 48.0 kHz
Frame rate : 41.667 FPS (1152 SPF)
Compression mode : Lossy
Delay relative to video : -510 ms
Stream size : 846 MiB (1%)

Audio #2
ID : 4128 (0x1020)
Menu ID : 1 (0x1)
Format : MPEG Audio
Format version : Version 1
Format profile : Layer 2
Codec ID : 3
Duration : 5 h 7 min
Bit rate mode : Constant
Bit rate : 384 kb/s
Channel(s) : 2 channels
Sampling rate : 48.0 kHz
Frame rate : 41.667 FPS (1152 SPF)
Compression mode : Lossy
Delay relative to video : -510 ms
Stream size : 846 MiB (1%)

Audio #3
ID : 4144 (0x1030)-1
Menu ID : 1 (0x1)
Format : Dolby E
Format settings : Little
Muxing mode : SMPTE ST 302 / SMPTE ST 337
Codec ID : 6
Duration : 5 h 7 min
Bit rate mode : Constant
Bit rate : 1 291 kb/s
Channel(s) : 6 channels
Channel layout : L C Ls X R LFE Rs X
Sampling rate : 48.0 kHz
Frame rate : 25.000 FPS (1920 SPF)
Bit depth : 20 bits
Delay relative to video : -560 ms
Stream size : 2.78 GiB (2%)
Title : UCL 5.1

Audio #4
ID : 4144 (0x1030)-2
Menu ID : 1 (0x1)
Format : Dolby E
Format settings : Little
Muxing mode : SMPTE ST 302 / SMPTE ST 337
Codec ID : 6
Duration : 5 h 7 min
Bit rate mode : Constant
Bit rate : 505 kb/s
Channel(s) : 2 channels
Channel layout : X X X L X X X R
Sampling rate : 48.0 kHz
Frame rate : 25.000 FPS (1920 SPF)
Bit depth : 20 bits
Delay relative to video : -560 ms
Stream size : 1.09 GiB (1%)
Title : UCL 2.0

Audio #5
ID : 4160 (0x1040)
Menu ID : 1 (0x1)
Format : MPEG Audio
Format version : Version 1
Format profile : Layer 2
Codec ID : 3
Duration : 5 h 7 min
Bit rate mode : Constant
Bit rate : 384 kb/s
Channel(s) : 2 channels
Sampling rate : 48.0 kHz
Frame rate : 41.667 FPS (1152 SPF)
Compression mode : Lossy
Delay relative to video : -510 ms
Stream size : 846 MiB (1%)

Audio #6
ID : 4176 (0x1050)
Menu ID : 1 (0x1)
Format : PCM
Codec ID : 6

Audio #7
ID : 4192 (0x1060)-1
Menu ID : 1 (0x1)
Format : Dolby E
Format settings : Little
Muxing mode : SMPTE ST 302 / SMPTE ST 337
Codec ID : 6
Duration : 5 h 7 min
Bit rate mode : Constant
Bit rate : 221 kb/s
Channel(s) : 1 channel
Channel layout : C X X X X X X X
Sampling rate : 48.0 kHz
Frame rate : 25.000 FPS (1920 SPF)
Bit depth : 20 bits
Delay relative to video : -560 ms
Stream size : 487 MiB (0%)
Title : Program 1

Audio #8
ID : 4192 (0x1060)-2
Menu ID : 1 (0x1)
Format : Dolby E
Format settings : Little
Muxing mode : SMPTE ST 302 / SMPTE ST 337
Codec ID : 6
Duration : 5 h 7 min
Bit rate mode : Constant
Bit rate : 221 kb/s
Channel(s) : 1 channel
Channel layout : X X X X C X X X
Sampling rate : 48.0 kHz
Frame rate : 25.000 FPS (1920 SPF)
Bit depth : 20 bits
Delay relative to video : -560 ms
Stream size : 487 MiB (0%)
Title : Program 2

Audio #9
ID : 4192 (0x1060)-3
Menu ID : 1 (0x1)
Format : Dolby E
Format settings : Little
Muxing mode : SMPTE ST 302 / SMPTE ST 337
Codec ID : 6
Duration : 5 h 7 min
Bit rate mode : Constant
Bit rate : 221 kb/s
Channel(s) : 1 channel
Channel layout : X C X X X X X X
Sampling rate : 48.0 kHz
Frame rate : 25.000 FPS (1920 SPF)
Bit depth : 20 bits
Delay relative to video : -560 ms
Stream size : 487 MiB (0%)
Title : Program 3

Audio #10
ID : 4192 (0x1060)-4
Menu ID : 1 (0x1)
Format : Dolby E
Format settings : Little
Muxing mode : SMPTE ST 302 / SMPTE ST 337
Codec ID : 6
Duration : 5 h 7 min
Bit rate mode : Constant
Bit rate : 221 kb/s
Channel(s) : 1 channel
Channel layout : X X X X X C X X
Sampling rate : 48.0 kHz
Frame rate : 25.000 FPS (1920 SPF)
Bit depth : 20 bits
Delay relative to video : -560 ms
Stream size : 487 MiB (0%)
Title : Program 4

Audio #11
ID : 4192 (0x1060)-5
Menu ID : 1 (0x1)
Format : Dolby E
Format settings : Little
Muxing mode : SMPTE ST 302 / SMPTE ST 337
Codec ID : 6
Duration : 5 h 7 min
Bit rate mode : Constant
Bit rate : 221 kb/s
Channel(s) : 1 channel
Channel layout : X X C X X X X X
Sampling rate : 48.0 kHz
Frame rate : 25.000 FPS (1920 SPF)
Bit depth : 20 bits
Delay relative to video : -560 ms
Stream size : 487 MiB (0%)
Title : Program 5

Audio #12
ID : 4192 (0x1060)-6
Menu ID : 1 (0x1)
Format : Dolby E
Format settings : Little
Muxing mode : SMPTE ST 302 / SMPTE ST 337
Codec ID : 6
Duration : 5 h 7 min
Bit rate mode : Constant
Bit rate : 221 kb/s
Channel(s) : 1 channel
Channel layout : X X X X X X C X
Sampling rate : 48.0 kHz
Frame rate : 25.000 FPS (1920 SPF)
Bit depth : 20 bits
Delay relative to video : -560 ms
Stream size : 487 MiB (0%)
Title : Program 6

Audio #13
ID : 4192 (0x1060)-7
Menu ID : 1 (0x1)
Format : Dolby E
Format settings : Little
Muxing mode : SMPTE ST 302 / SMPTE ST 337
Codec ID : 6
Duration : 5 h 7 min
Bit rate mode : Constant
Bit rate : 221 kb/s
Channel(s) : 1 channel
Channel layout : X X X C X X X X
Sampling rate : 48.0 kHz
Frame rate : 25.000 FPS (1920 SPF)
Bit depth : 20 bits
Delay relative to video : -560 ms
Stream size : 487 MiB (0%)
Title : Program 7

Audio #14
ID : 4192 (0x1060)-8
Menu ID : 1 (0x1)
Format : Dolby E
Format settings : Little
Muxing mode : SMPTE ST 302 / SMPTE ST 337
Codec ID : 6
Duration : 5 h 7 min
Bit rate mode : Constant
Bit rate : 221 kb/s
Channel(s) : 1 channel
Channel layout : X X X X X X X C
Sampling rate : 48.0 kHz
Frame rate : 25.000 FPS (1920 SPF)
Bit depth : 20 bits
Delay relative to video : -560 ms
Stream size : 487 MiB (0%)
Title : Program 8

Audio #15
ID : 4208 (0x1070)
Menu ID : 1 (0x1)
Format : MPEG Audio
Format version : Version 1
Format profile : Layer 2
Codec ID : 3
Duration : 5 h 7 min
Bit rate mode : Constant
Bit rate : 256 kb/s
Channel(s) : 2 channels
Sampling rate : 48.0 kHz
Frame rate : 41.667 FPS (1152 SPF)
Compression mode : Lossy
Delay relative to video : -486 ms
Stream size : 564 MiB (0%)

Audio #16
ID : 4224 (0x1080)
Menu ID : 1 (0x1)
Format : MPEG Audio
Format version : Version 1
Format profile : Layer 2
Codec ID : 3
Duration : 5 h 7 min
Bit rate mode : Constant
Bit rate : 256 kb/s
Channel(s) : 2 channels
Sampling rate : 48.0 kHz
Frame rate : 41.667 FPS (1152 SPF)
Compression mode : Lossy
Delay relative to video : -486 ms
Stream size : 564 MiB (0%)

Menu
ID : 2048 (0x800)
Menu ID : 1 (0x1)
Duration : 5 h 7 min
List : 512 (0x200) (HEVC) / 4112 (0x1010) (MPEG Audio) / 4128 (0x1020) (MPEG Audio) / 4144 (0x1030) (Dolby E) / 4160 (0x1040) (MPEG Audio) / 4176 (0x1050) (PCM) / 4192 (0x1060) (Dolby E) / 4208 (0x1070) (MPEG Audio) / 4224 (0x1080) (MPEG Audio)
Service name : Feed Z2 HDR Main
Service provider : Eurovision
Service type : digital television

下载地址:
此帖售价 5 下载币,已有 33 人购买
本场比赛需要购买,请先冲值!冲值请点这里


[ 此帖被开天辟地在2022-07-13 10:53重新编辑 ]
级别: 替补球员
1  发表于: 2022-07-03 21:43

老大 上个截图啊15英语吗
级别: 替补球员
2  发表于: 2022-07-03 23:35

125G,这得多清晰啊,牛掰
级别: 替补球员
3  发表于: 2022-07-04 19:23

115网盘还能用呢?
级别: 替补球员
4  发表于: 2022-07-04 20:12

能不能给一个百度网盘的?谢谢。
级别: 超级替补
5  发表于: 2022-07-04 21:07

什么语言啊,也不说明下   
级别: 替补球员
6  发表于: 2022-07-04 21:55

谢谢分享 楼主辛苦了
级别: 替补球员
7  发表于: 2022-07-05 00:46

感谢楼主的分享
级别: 小小球童
8  发表于: 2022-07-05 09:06

网盘不能注册 不能用啊   急急急急
级别: 小小球童
9  发表于: 2022-07-05 11:02

谢谢你,楼主的分享!
上一主题下一主题
«12345»Pages: 1/5     Go