主题 : 2018俄罗斯世界杯小组赛第2轮 葡萄牙VS摩洛哥 SNG高清 1080i 57.54GB【115下载】
级别: 版块版主
0  发表于: 2022-06-27 08:13

2018俄罗斯世界杯小组赛第2轮 葡萄牙VS摩洛哥 SNG高清 1080i 57.54GB【115下载】

管理提醒: 本帖被 付四 执行加亮操作(2022-07-03)
General
ID                             : 1 (0x1)
Complete name                  :
Format                         : MPEG-TS
File size                      :
Duration                       :
Overall bit rate mode          : Variable
Overall bit rate               : 41.4 Mb/s

Video
ID                             : 512 (0x200)
Menu ID                        : 1 (0x1)
Format                         : AVC
Format/Info                    : Advanced Video Codec
Format profile                 : High 4:2:[email protected]
Format settings                : CABAC / 4 Ref Frames
Format settings, CABAC         : Yes
Format settings, Reference fra : 4 frames
Codec ID                       : 27
Duration                       :
Bit rate                       : 38.1 Mb/s
Width                          : 1 920 pixels
Height                         : 1 080 pixels
Display aspect ratio           : 16:9
Frame rate                     : 25.000 FPS
Standard                       : Component
Color space                    : YUV
Chroma subsampling             : 4:2:2
Bit depth                      : 8 bits
Scan type                      : MBAFF
Scan type, store method        : Interleaved fields
Scan order                     : Top Field First
Bits/(Pixel*Frame)             : 0.735
Stream size                    :
Color range                    : Limited
Color primaries                : BT.709
Transfer characteristics       : BT.709
Matrix coefficients            : BT.709

Audio #1
ID                             : 4112 (0x1010)
Menu ID                        : 1 (0x1)
Format                         : MPEG Audio
Format version                 : Version 1
Format profile                 : Layer 2
Codec ID                       : 3
Duration                       : 3 h 19 min
Bit rate mode                  : Constant
Bit rate                       : 192 kb/s
Channel(s)                     : 2 channels
Sampling rate                  : 48.0 kHz
Frame rate                     : 41.667 FPS (1152 SPF)
Compression mode               : Lossy
Delay relative to video        : -267 ms
Stream size                    : 274 MiB (0%)

Audio #2
ID                             : 4128 (0x1020)
Menu ID                        : 1 (0x1)
Format                         : MPEG Audio
Format version                 : Version 1
Format profile                 : Layer 2
Codec ID                       : 3
Duration                       : 3 h 19 min
Bit rate mode                  : Constant
Bit rate                       : 192 kb/s
Channel(s)                     : 2 channels
Sampling rate                  : 48.0 kHz
Frame rate                     : 41.667 FPS (1152 SPF)
Compression mode               : Lossy
Delay relative to video        : -267 ms
Stream size                    : 274 MiB (0%)

Audio #3
ID                             : 4144 (0x1030)
Menu ID                        : 1 (0x1)
Format                         : AC-3
Format/Info                    : Audio Coding 3
Commercial name                : Dolby Digital
Codec ID                       : 129
Duration                       : 3 h 19 min
Bit rate mode                  : Constant
Bit rate                       : 640 kb/s
Channel(s)                     : 6 channels
Channel layout                 : L R C LFE Ls Rs
Sampling rate                  : 48.0 kHz
Frame rate                     : 31.250 FPS (1536 SPF)
Compression mode               : Lossy
Delay relative to video        : -241 ms
Stream size                    : 914 MiB (2%)
Service kind                   : Complete Main

Audio #4
ID                             : 4160 (0x1040)
Menu ID                        : 1 (0x1)
Format                         : MPEG Audio
Format version                 : Version 1
Format profile                 : Layer 2
Codec ID                       : 3
Duration                       : 3 h 19 min
Bit rate mode                  : Constant
Bit rate                       : 192 kb/s
Channel(s)                     : 2 channels
Sampling rate                  : 48.0 kHz
Frame rate                     : 41.667 FPS (1152 SPF)
Compression mode               : Lossy
Delay relative to video        : -267 ms
Stream size                    : 274 MiB (0%)

Menu
ID                             : 4096 (0x1000)
Menu ID                        : 1 (0x1)
Duration                       : 3 h 19 min
List                           : 512 (0x200) (AVC) / 4112 (0x1010) (MPEG Audio) / 4128 (0x1020) (MPEG Audio) / 4144 (0x1030) (AC-3) / 4160 (0x1040) (MPEG Audio)
Service name                   : sat-msp-main
Service provider               : SynterraMedia
Service type                   : digital television

下载地址:
此帖售价 5 下载币,已有 1 人购买
本场比赛需要购买,请先冲值!冲值请点这里
级别: 替补球员
1  发表于: 2022-07-16 09:04